File-Portal

чужой завет скачать торрент 2016

Рейтинг: 5.0/5.0 (12 проголосовавших)

Категория: Торрент-файлы

Описание

Скачать торрент Чужой: Завет

Скачать Чужой: Завет / Alien: Covenant (2017) BDRip 1080p | L торрент

Чужой завет скачать торрент 2016

Чужой завет скачать торрент 2016

Название: Чужой: Завет

Оригинальное название: Alien: Covenant

Режиссер: Ридли Скотт

В ролях: Майкл Фассбендер, Кэтрин Уотерстон, Билли Крадап, Дэнни МакБрайд, Демиан Бишир, Кармен Эджого, Джусси Смоллетт, Калли Эрнандес, Эми Саймец, Натаниель Дин, Александр Инглэнд, Бенжамин Ригби, Ули Латукефу, Тесс Хобрич, Лорелей Кинг, Горан Д’Клюе

2104 год. Колониальный корабль "Завет" с живыми людьми на борту бороздит просторы большого космоса на пути к неосвоенной целине. Попав в нейтринную вспышку и отделавшись легким испугом, экипаж получает загадочный сигнал с неизвестной планеты, на которой есть все условия для жизни. После непродолжительных колебаний команда прокладывает новый курс к источнику сигнала и вскоре оказывается в земном раю посреди рекордного урожая пшеницы. Однако, головокружение от успехов прерывает встреча с жертвами отсутствия генетического контроля и единственным выжившим членом экспедиции "Прометея" - андроидом Дэвидом. Неизведанный рай оборачивается суицидальным кошмаром с жестоким надругательством над психикой, купанием в соляной кислоте и поиском духовного смысла.

Студия: 20th Century Fox Film Corporation, Brandywine Productions

Перевод: Любительский многоголосый [Студия "Paradox" & Omskbird records]

• Перевод: Оксана Графутко

• Роли озвучивали: Маргарита Корш, Павел Ярощик, Максим Максимов, Марина Гассан

• Звукорежиссер: Павел Квентов

• Постер: Ксения Просветова

Присутствует реклама и ненормативная лексика!

8 637 kbps avg, 0.235 bit/pixel

Звук: 48 kHz, AC3 Dolby Digital, 2/0 (L,R) ch,

Другие статьи

Скачать фильм Чужой: Завет Трейлер

Скачать фильм Чужой: Завет [Трейлер] / Alien: Covenant (Ридли Скотт) [2017, ужасы, фантастика, боевик, триллер, WEBRip 1080p] ENG - торрент

Скачать торрент фильм можно, нажав на синюю кнопку ниже. Фильм доступен на нашем торрент-трекере бесплатно, без регистрации и смс.

Чужой завет скачать торрент 2016

Перевод: Английский , субтитры: отсутствуют

Формат: WEBRip , MKV , H.264, AAC

Режиссер: Ридли Скотт

Чужой завет скачать торрент 2016

Видео: 1920x1080 (16:9), 23,981 fps, AVC MPEG-4, High@L4

2650 Кбит/сек, 0.053 bit/pixel

Аудио: 44,1 kHz, AAC, (L,R) 2 ch,

Дата российской премьеры: 18 мая 2017, «Двадцатый Век Фокс СНГ»

Чужой завет скачать торрент 2016

Чужой завет скачать торрент 2016

Чужой завет скачать торрент 2016

Чужой завет скачать торрент 2016

Профиль формата : Base Media

Идентификатор кодека : isom (isom/iso2/avc1/mp41)

Размер файла : 44,2 Мбайт

Продолжительность : 2 м. 13 с.

Режим общего битрейта : Переменный

Общий поток : 2779 Кбит/сек

Дата кодирования : UTC 2016-12-23 07:50:35

Дата пометки : UTC 2016-12-23 07:50:35

Формат/Информация : Advanced Video Codec

Профиль формата : High@L4

Параметр CABAC формата : Да

Параметр ReFrames формата : 2 кадра

Идентификатор кодека : avc1

Идентификатор кодека/Информация : Advanced Video Coding

Продолжительность : 2 м. 13 с.

Битрейт : 2650 Кбит/сек

Ширина : 1920 пикселей

Высота : 1080 пикселей

Соотношение сторон : 16:9

Режим частоты кадров : Переменный

Частота кадров : 23,976 (24000/1001) кадра/сек

Минимальная частота кадров : 23,974 кадра/сек

Максимальная частота кадров : 23,981 кадра/сек

Цветовое пространство : YUV

Субдискретизация насыщенности : 4:2:0

Битовая глубина : 8 бит

Тип развёртки : Прогрессивная

Размер потока : 42,2 Мбайт (95%)

Дата кодирования : UTC 2016-12-23 07:50:35

Дата пометки : UTC 2016-12-23 07:50:35

Цветовой диапазон : Limited

Основные цвета : BT.709

Характеристики трансфера : BT.709

Коэффициенты матрицы : BT.709

Формат/Информация : Advanced Audio Codec

Профиль формата : LC

Идентификатор кодека : 40

Продолжительность : 2 м. 13 с.

Вид битрейта : Переменный

Битрейт : 126 Кбит/сек

Каналы : 2 канала

Расположение каналов : Front: L R

Частота : 44,1 КГц

Частота кадров : 43,066 кадра/сек (1024 spf)

Метод сжатия : С потерями

Размер потока : 2,00 Мбайт (5%)

Alternate group : 1

Дата кодирования : UTC 2016-12-23 07:50:38

Дата пометки : UTC 2016-12-23 07:50:38

Информация о торренте:

Скачан: 2582 раза

Статус: Проверен Зарегистрирован на трекере: 2016-12-25 22:16

Чужой: Завет (2017) Скачать через торрент

Чужой: Завет (2017) Скачать через торрент

Оригинальное название: Alien: Covenant

Режиссер: Ридли Скотт

Премьера (РФ): 18 мая 2017, «Двадцатый Век Фокс СНГ»

Сюжет фильма Чужой: Завет (2017)

Чтобы узнать все остальные тайны, андроид и Элизабет должны будут отправиться на планету великанов - Рай. Только там, находясь непосредственно в эпицентре событий, они смогут двигаться дальше в своем расследовании, не допуская при этом критичных ошибок. Но, каждый шаг опасен, и может привести к гибели. Команда «Прометея», и так сократившаяся до критического минимума, может стать еще меньше, что навсегда разрушит ее нынешние достижения. У них нет права на ошибку, и Дэвид с Элизабет обязаны довести начатое до самого конца. Какой бы большой не оказалась цена за все запретные знания.

Чужой: Завет (2017) Скачать через торрент

Видео: XviD, 1384 kb/s, 720x400

Аудио: Русский (AC3, 2 ch, 192 Кбит/с)

Перевод: Дублированный - Чистый звук

Видео: 720x304 (2.37:1), 23.976 fps, XviD build 50

1945 kbps avg, 0.37 bit/pixel

Аудио: 48 kHz, AC3 Dolby Digital, 2/0 (L,R) ch,

Перевод: Дублированный - Чистый звук

Качество: BDRip 720p

Видео: x264, 4170 kb/s, 1280x720

Аудио: AC3, 2 ch, 448 Kbps

Перевод: Дублированный - Чистый звук

Качество: BDRip 1080p

Видео: x264, 11.0 Mb/s, 1920x800

Аудио: AC3, 2 ch, 384 Kbps

Перевод: Дублированный - Чистый звук

Скачать фильм Чужой: Завет (2017) бесплатно

Чужой: Завет (2017) скачать торрент

Чужой завет скачать торрент 2016

Название: Чужой: Завет

Оригинальное название : Alien: Covenant

В ролях: Майкл Фассбендер, Нуми Рапас, Дэниэл Уэбб

Перевод : Профессиональный (полное дублирование)

К съемочному процессу приступают этой осенью и планируют показать фильм летом 2016 года. Будем надеяться, что так и произойдет и никаких задержек во время съемок не произойдет.

Ученые узнают, что по неизвестной причине, создатели решили уничтожить всех своих детей-людей. Космический корабль, под завязку набитый биологическим оружием, был отправлен ими на Землю. Эта новость шокирует всех.

Чужой завет скачать торрент 2016

Чужой завет скачать торрент 2016

Чужой завет скачать торрент 2016

Chuzhoj.Zavet.2017.D.Line.BDRip.1400Mb_ExKinoRa.torrent [15,91 Kb] (cкачиваний: 31) Чужой завет скачать торрент 2016

Скачать торрент Чужой: Завет

Чужой: Завет

Название: Чужой: Завет

Оригинальное название: Alien: Covenant

Год выпуска: 2017

Категория: ужасы, фантастика, триллер

Режиссер постановщик: Ридли Скотт

В главных ролях: Майкл Фассбендер, Кэтрин Уотерстон, Билли Крудап, Дэнни МакБрайд, Демиан Бишир, Кармен Эджого, Джусси Смоллетт, Калли Эрнандес, Эми Саймец, Натаниель Дин

Человечество отправило ученых исследовать удаленную планету, которая расположена на другой стороне галактике. И вот группа ученых с корабля «Завет» наткнулась на то, что поначалу было принято за неизведанный рай. На самом же деле находка оказалась темным и опасным миром. Его населяет только один житель, синтетический андроид Дэвид, который остался единственным после провала заранее обреченной экспедиции «Прометей».

Перевод: Профессиональный (полное дублирование) [Центральный канал line]

Субтитры: Русские (полные) - отдельно

Видео кодек: XviD

Аудио кодек: AC3

Видео: 720x304 (2.37:1), 23.976 fps, XviD build 73

2100 kbps avg, 0.40 bit/pixel

Аудио: 48 kHz, AC3 Dolby Digital, 3/2 (L,C,R,l,r) + LFE ch,